打印

[BluRay] 流浪地球/中文字幕

点此感谢支持作者!本贴共获得感谢 X 7

流浪地球/中文字幕

流浪地球.The.Wandering.Earth.2019.CHINESE.1080p.BluRay.x264.DTS-HD.MA.7.1-FGT.13.93 GB.中文字幕



导演: 郭帆
编剧: 龚格尔 / 严东旭 / 郭帆 / 叶俊策 / 杨治学 / 吴荑 / 叶濡畅 / 沈晶晶 / 刘慈欣
主演: 屈楚萧 / 吴京 / 李光洁 / 吴孟达 / 赵今麦
类型: 科幻 / 灾难
制片国家/地区: 中国大陆
语言: 汉语普通话 / 英语 / 俄语 / 法语 / 日语 / 韩语 / 印尼语
上映日期: 2019-02-05(中国大陆)
片长: 125分钟
又名: The Wandering Earth
IMDb链接: tt7605074

流浪地球的剧情简介 · · · · · ·
  近未来,科学家们发现太阳急速衰老膨胀,短时间内包括地球在内的整个太阳系都将被太阳所吞没。为了自救,人类提出一个名为“流浪地球”的大胆计划,即倾全球之力在地球表面建造上万座发动机和转向发动机,推动地球离开太阳系,用2500年的时间奔往另外一个栖息之地。中国航天员刘培强(吴京 饰)在儿子刘启四岁那年前往国际空间站,和国际同侪肩负起领航者的重任。转眼刘启(屈楚萧 饰)长大,他带着妹妹朵朵(赵今麦 饰)偷偷跑到地表,偷开外公韩子昂(吴孟达 饰)的运输车,结果不仅遭到逮捕,还遭遇了全球发动机停摆的事件。为了修好发动机,阻止地球坠入木星,全球开始展开饱和式营救,连刘启他们的车也被强征加入。在与时间赛跑的过程中,无数的人前仆后继,奋不顾身,只为延续百代子孙生存的希望……
  本片根据刘慈欣的同名小说改编。














Video
ID : 1
Format : AVC
Format/Info : Advanced Video Codec
Format profile : High@L4.1
Format settings : CABAC / 4 Ref Frames
Format settings, CABAC : Yes
Format settings, Reference frames : 4 frames
Codec ID : V_MPEG4/ISO/AVC
Duration : 2 h 5 min
Bit rate : 11.5 Mb/s
Width : 1 920 pixels
Height : 752 pixels
Display aspect ratio : 2.553
Frame rate mode : Constant
Frame rate : 24.000 FPS
Color space : YUV
Chroma subsampling : 4:2:0
Bit depth : 8 bits
Scan type : Progressive
Bits/(Pixel*Frame) : 0.332
Stream size : 10.1 GiB (72%)
Title : The.Wandering.Earth.2019.CHINESE.1080p.BluRay.x264.DTS-HD.MA.7.1-FGT
Writing library : x264 core 148 r2795M aaa9aa8
Encoding settings : cabac=1 / ref=4 / deblock=1:-2:-2 / analyse=0x3:0x113 / me=umh / subme=9 / psy=1 / psy_rd=1.00:0.15 / mixed_ref=1 / me_range=16 / chroma_me=1 / trellis=2 / 8x8dct=1 / cqm=0 / deadzone=21,11 / fast_pskip=1 / chroma_qp_offset=-3 / threads=72 / lookahead_threads=3 / sliced_threads=0 / nr=0 / decimate=1 / interlaced=0 / bluray_compat=0 / constrained_intra=0 / bframes=3 / b_pyramid=2 / b_adapt=1 / b_bias=0 / direct=3 / weightb=1 / open_gop=0 / weightp=2 / keyint=250 / keyint_min=25 / scenecut=40 / intra_refresh=0 / rc_lookahead=50 / rc=2pass / mbtree=1 / bitrate=11500 / ratetol=1.0 / qcomp=0.60 / qpmin=0 / qpmax=69 / qpstep=4 / cplxblur=20.0 / qblur=0.5 / vbv_maxrate=31250 / vbv_bufsize=31250 / nal_hrd=none / filler=0 / ip_ratio=1.40 / aq=1:1.00
Language : Chinese
Default : Yes
Forced : No

Audio
ID : 2
Format : DTS XLL
Format/Info : Digital Theater Systems
Commercial name : DTS-HD Master Audio
Codec ID : A_DTS
Duration : 2 h 5 min
Bit rate mode : Variable
Bit rate : 4 414 kb/s
Channel(s) : 8 channels
Channel layout : C L R LFE Lb Rb Lss Rss
Sampling rate : 48.0 kHz
Frame rate : 93.750 FPS (512 SPF)
Bit depth : 24 bits
Compression mode : Lossless
Stream size : 3.86 GiB (28%)
Title : The.Wandering.Earth.2019.CHINESE.1080p.BluRay.x264.DTS-HD.MA.7.1-FGT
Language : Chinese
Default : Yes
Forced : No

Text #1
ID : 3
Format : UTF-8
Codec ID : S_TEXT/UTF8
Codec ID/Info : UTF-8 Plain Text
Duration : 1 h 57 min
Bit rate : 54 b/s
Count of elements : 1758
Stream size : 47.4 KiB (0%)
Title : English-SRT
Language : English
Default : Yes
Forced : No

Text #2
ID : 4
Format : PGS
Muxing mode : zlib
Codec ID : S_HDMV/PGS
Codec ID/Info : Picture based subtitle format used on BDs/HD-DVDs
Duration : 1 h 57 min
Bit rate : 35.0 kb/s
Count of elements : 2711
Stream size : 29.5 MiB (0%)
Title : English-PGS
Language : English
Default : No
Forced : No

Text #3
ID : 5
Format : PGS
Muxing mode : zlib
Codec ID : S_HDMV/PGS
Codec ID/Info : Picture based subtitle format used on BDs/HD-DVDs
Duration : 2 h 3 min
Bit rate : 14.7 kb/s
Count of elements : 2802
Stream size : 13.1 MiB (0%)
Title : Chinese-PGS
Language : Chinese
Default : No
Forced : No

Menu
00:00:00.000 : en:Chapter 01
00:09:02.708 : en:Chapter 02
00:22:19.250 : en:Chapter 03
00:32:36.416 : en:Chapter 04
00:41:24.666 : en:Chapter 05
00:50:44.166 : en:Chapter 06
00:58:43.333 : en:Chapter 07
01:09:27.625 : en:Chapter 08
01:20:09.625 : en:Chapter 09
01:34:25.291 : en:Chapter 10
01:45:38.583 : en:Chapter 11
01:55:38.250 : en:Chapter 12


[ 本帖最后由 andy72game 于 2019-10-31 14:59 编辑 ]
附件: 您所在的用户组无法下载或查看附件
本帖最近评分记录
  • 15021206191 金币 +30 转贴分享造福大众,论坛所有会员向您致敬! 2019-11-1 09:36
  • 15021206191 金币 +30 回复中请不要使用“顶”字! 2019-11-1 09:36

点此感谢支持作者!本贴共获得感谢 X 7
TOP

这个一定要收藏了,
感谢楼主分享,辛苦啦!

TOP

关键在于有没有花絮碟的内容,不过一样要谢谢楼主分享

TOP

回复 3楼 的帖子

125分钟就是普通剪裁后的版本,141才是完整版,没地有

TOP

13.93 GB,好大哥,应该是个igaoqing的,谢谢楼主的分享,收藏了

TOP



当前时区 GMT+8, 现在时间是 2019-11-20 11:53